logo

Bing crosby songs i wish i had sung


Selected bitrate : 768 kBit/s, quality : High, add ID3 tag :.
Wav" wave index 01 00:00:00 track 07 audio title "Paper Doll" performer "Bing Crosby" index 00 02:51:22 file "07-Paper Doll.Wav" wave index 01 00:00:00 track 04 audio title "A little kiss each morning A little kiss each tonight" performer "Bing Crosby" index 00 02:41:55 file "04-A little kiss each morning A little kiss each tonight.Wav" wave index 01 00:00:00 track 09 audio title "Thanks for the memory" performer "Bing Crosby" index 00 02:48:35 casino flipper file "09-Thanks for the memory.Bing Crosby - Songs I Wish I Had Sung.In 1956, Crosby recorded the album Songs I Wish I Had Sung the First Time Around, in which he paid homage to some of his favorite singers by interpreting their signature songs, including Al Jolson April Showers Nat King Cole Mona Lisa Louis Armstrong Ain't.TOC of the extracted CD, track Start Length Start sector End sector :00.00 2:47.Wav Peak level.4 Track quality 100.0 Test CRC 07D03CCC Copy casino baden kleidung sommer CRC 07D03CCC Track not present in AccurateRip database Copy OK None of the tracks are present in the AccurateRip database No errors occurred End of status report.Wav Peak level 100.0 Track quality 100.0 Test CRC E449DF91 Copy CRC E449DF91 Track not present in AccurateRip database Copy OK Track 2 Filename K:My Music 302-When my baby smiles.
Wav" wave track 01 audio title "April Showers" performer "Bing Crosby" index 01 00:00:00 track 02 audio title "When my baby smiles at me" performer "Bing Crosby" index 00 02:44:47 file "02-When my baby smiles.
EAC Rip flac (e, log) 122.66 Mb 36:03 Scans included.
Wav" wave index 01 00:00:00 track 12 audio title "Memories are made of this" performer "Bing Crosby" index 00 03:00:36 file "12-Memories are made of this.
Here are two titles from the mid 1950s, recorded for the Decca label, the company to which Crosby was under contract from the 1930s till the mid 1950s.
EAC extraction logfile from.Wav" wave index 01 00:00:00 track 08 audio title "This love of mine" performer "Bing Crosby" index 00 02:58:57 file "08-This love of mine.Wav" wave index 01 00:00:00 track 05 audio title "Prisoner of love" performer "Bing Crosby" index 00 02:55:01 file "05-Prisoner of love.Vocal Jazz Label: Decca Records - 25P2-2832.Bing Crosby 03:10 320 7,28 3, my blue heaven, bing Crosby 02:44 320 6,26 4, a little kiss each morning A little kiss each tonight.Wav" wave index 01 00:00:00 track 06 audio title "Ain't Misbehavin' I'm savin' my love for you" performer "Bing Crosby" index 00 03:17:08 file "06-Ain't Misbehavin' I'm savin' my love for you.Used drive : HL-DT-stdvdrrw GSA-H21L Adapter: 0 ID:.Wav Peak level 100.0 Track quality 100.0 Test CRC D5A55FD3 Copy CRC D5A55FD3 Track not present in AccurateRip database Copy OK Track 11 Filename K:My Music 311-Mona Lisa.Gap handling : Not detected, thus appended to previous track.Bing covered some of his musical rivals' biggest hits, such as Al Jolson's "April Showers" and Nat King Cole's "Mona Lisa".

Read mode : Secure, utilize accurate stream : Yes, defeat audio cache :.
Used interface : Native Win32 interface for Win NT 2000.
Wav" wave index 01 00:00:00 track 03 audio title "My blue heaven" performer "Bing Crosby" index 00 03:07:55 file "03-My blue heaven.


Sitemap